HotGet-Торенти

Начална страница

Торенти

Регистрация

Забравена парола?

Новини

Форум

Тракер инфо: Потребители:639 торент(и):26 сийд(ове):2029 лийчър(и):90 пиър(и):2119 сийд(ове)/лийчър(и):2,254% Трафик:1,862.71 TB

Потребител: Парола:
Регистрация Забравена парола?
Торент каталог
Тракер инфо
HotGet
Потребители: 639
торент(и): 26
сийд(ове): 2029
лийчър(и): 90
пиър(и): 2119
сийд(ове)/лийчър(и): 2,254%
Трафик: 1,862.71 TB

Sex and the City 2 (2010) DVDRip XviD-MAX

Свали :Sex and the City 2 (2010) DVDRip XviD-MAX.torrent
Код :bb5d6d7798bfb15d1b9b326b9a90380f64d6f24f
Описание:

Sex and the City 2 (2010) DVDRip XviD-MAX

## Жанр : Комедия, Драма, Романтичен

## Режисьор : Майкъл Патрик Кинг

## С гласовете на : Сара Джесика Паркър, Ким Катрал, Кристин Дейвис, Синтия Никсън, Крис Нот, Пенелопе Крус, Дейвид Егенберг, Евън Хендлер, Джон Корбет и други

## IMDB : Линк към IMDB

## Държава : САЩ

## Година : 2010

## Времетраене : 136 минути

## Резюме : Майкъл Патрик Кинг (носител на 2 награди \"Еми\" или създателят на сериала и филма „Сексът и градът”) се завръща с продължение на блокбъстъра от лятото на 2008, обединявайки четирите звезди за ново пищно лудуване през хайлайфа на Ню Йорк.

Кари Брадшоу (Сара Джесика Паркър) успява да се омъжи за голямата си любов Тузаря (Крис Нот). Времето минава и две години след сватбата бракът им започва да се превръща в рутина. Кари решава да замине с трите си приятелки Шарлот (Кристин Дейвис), Миранда (Синтия Никсън) и Саманта (Ким Катрал) за Абу Даби, където да се разтоварят от ежедневните си занимания. Четирите жени искат само да пият коктейли, да се разхождат в пустинята и да си говорят за мъже. Неочаквано обаче в курорта Кари среща бившето си гадже Ейдън (Джон Корбет) и двамата усещат, че между тях все още има привличане.

## Субтитри : За сега няма

Format : AVI
Format/Info : Audio Video Interleave
Format profile : OpenDML
File size : 1.37 GiB
Duration : 2h 20mn
Overall bit rate : 1 390 Kbps
Writing application : VirtualDubMod 1.5.10.2 (build 2542/release)
Writing library : VirtualDubMod build 2542/release
Original source form : MAX TORRENTZ
Copyright : SIGISMUNT

Video
ID : 0
Format : MPEG-4 Visual
Format profile : E-mail
Format settings, BVOP : Yes
Format settings, QPel : No
Format settings, GMC : No warppoints
Format settings, Matrix : Default (H.263)
Muxing mode : Packed bitstream
Codec ID : XVID
Codec ID/Hint : XviD
Duration : 2h 20mn
Bit rate : 1 193 Kbps
Width : 720 pixels
Height : 288 pixels
Display aspect ratio : 2.500
Frame rate : 25.000 fps
Resolution : 24 bits
Colorimetry : 4:2:0
Scan type : Progressive
Bits/(Pixel*Frame) : 0.230
Stream size : 1.17 GiB (86%)
Writing library : XviD 1.2.1 (UTC 2008-12-04)

Audio
ID : 1
Format : AC-3
Format/Info : Audio Coding 3
Codec ID : 2000
Duration : 2h 20mn
Bit rate mode : Constant
Bit rate : 192 Kbps
Channel(s) : 2 channels
Channel positions : L R
Sampling rate : 48.0 KHz
Stream size : 193 MiB (14%)
Alignment : Aligned on interleaves
Interleave, duration : 64 ms (1.60 video frames)
Interleave, preload duration : 192 ms

Source: KiNGDOM (perfect resynced-check included sample)
http://www.imdb.com/title/tt1261945/

Screens:
http://www.postimg.com/image/19000/18595.jpghttp://www.postimg.com/image/19000/18596.jpghttp://www.postimg.com/image/19000/18597.jpghttp://www.postimg.com/image/19000/18598.jpg

ScreenCaps:
http://www.postimg.com/image/19000/18599.jpg

Sex and the City 2 (2010) DVDRip XviD-MAX Torrent Free Download
http://thepiratebay.org/user/extremezone/0/7

How To Get Your Maxspeed (uTorrent)

Torrent Client - Preferences - Bandwidth - Number of connections - Set aprox. 500 for each
Torrent Client - Preferences - BiTorrent - Protocol Encryption - Forced
Bandwidth Allocation - High (Set download/upload limit - Unlimited)
Stop Other Active Torrents - Start downloading and wait for connections
Enjoy and Seed for at least 1:1 ratio. Don\'t forget to say thanks/leave reviews.
Also please spread the link where you found this torrent to your friends.
Don\'t trust IMDb robot or bad ratings,always watch some trailers first.
Ignore stupid comments and fake/mislabeled/CAM/TS/RAR uploads.
If you need translation subs visit some subtitles sites.
Recommended movie player VLC PLAYER.
Реклама:
Категория:Филми/DivX-Xvid
Рейтинг: N/A
Големина:1.38 GB
Покажи/Скрий файловете:
7 файлове
Добавен на:30.07.2010
Изтеглено:10 път(и)
пиър(и): сийд(ове): 420, лийчър(и): 55 = 475пиър(и)


Няма Коментари...


Назад
От къде научихте за нас?
От Google (20)  (40%)
От сайта на HotDance (6)  (12%)
От приятел (8)  (16%)
От друго място (15)  (30%)
Форум Инфо
Теми:0
Публикации:0
Теми/Публикации:0 %
Не са намерени Теми

Торенти - HotGet.Net (http://torenti.hotget.net) by ComSys2000