HotGet-Торенти

Начална страница

Торенти

Регистрация

Забравена парола?

Новини

Форум

Тракер инфо: Потребители:647 торент(и):27 сийд(ове):2029 лийчър(и):90 пиър(и):2119 сийд(ове)/лийчър(и):2,254% Трафик:1,862.71 TB

Потребител: Парола:
Регистрация Забравена парола?
Торент каталог
Тракер инфо
HotGet
Потребители: 647
торент(и): 27
сийд(ове): 2029
лийчър(и): 90
пиър(и): 2119
сийд(ове)/лийчър(и): 2,254%
Трафик: 1,862.71 TB

Axel Rudi Pell - Hallelujah - 2011

Свали :Axel Rudi Pell - Hallelujah - 2011.torrent
Код :fca5a781b98ff1b52a07239aec6bd045af989053
Описание:

## Изпълнител/и : Axel Rudi Pell

## Албум : The Ballads IV

## Песен : Hallelujah

## Година : 2011

## Жанр : Hard Rock / Metal

## Времетраене :4,15 min.



Видео:

## Формат/Кодек : mp4 / AVC

## Битрейт : 5.9 Mbps

## Резолюция : HD 1280 / 720



Аудио:

## Формат : AAC / Stereo

## Битрейт : 220 kbit/s

## Състав на групата :







Axel Rudi Pell - Guitars (X-Mas Project, Steeler (Ger), Tom Angelripper, Roland Grapow)

Johnny Gioeli - Vocals (Hardline, Accomplice, Genius, Crush 40)

Volker Krawczak - Bass (Steeler (Ger)

Mike Terrana - Drums Savage Circus, Rage (Ger), Empire (Ger), Roland Grapow, Squealer (Ger),

Ferdy Doernberg - Keyboards (Eden\'s Curse, Dezperadoz, Rick Renstrom, Roland Grapow, Rough Silk, Shock Machine, Taraxacum)







## Резюме :



Hallelujah е видеото към новият албум на групата Axel Rudi Pell - The Ballads IV който излезе на 26 септември 2011 .

Великолепно изпълнение с много добро качество .
NFO:
General
Complete name                    : Axel Rudi Pell - Hallelujah
Format                           : MPEG-4
Format profile                   : Base Media / Version 2
Codec ID                         : mp42
File size                        : 81.5 MiB
Duration                         : 4mn 18s
Overall bit rate                 : 2 646 Kbps



Video
ID                               : 1
Format                           : AVC
Format/Info                      : Advanced Video Codec
Format profile                   : High@L3.1
Format settings, CABAC           : Yes
Format settings, ReFrames        : 1 frame
Codec ID                         : avc1
Codec ID/Info                    : Advanced Video Coding
Duration                         : 4mn 18s
Bit rate mode                    : Variable
Bit rate                         : 2 491 Kbps
Maximum bit rate                 : 5 609 Kbps
Width                            : 1 280 pixels
Height                           : 720 pixels
Display aspect ratio             : 16/9
Frame rate mode                  : Variable
Frame rate                       : 25.000 fps
Resolution                       : 24 bits
Colorimetry                      : 4:2:0
Scan type                        : Progressive
Bits/(Pixel*Frame)               : 0.108
Stream size                      : 76.7 MiB (94%)


Audio
ID                               : 2
Format                           : AAC
Format/Info                      : Advanced Audio Codec
Format version                   : Version 4
Format profile                   : LC
Format settings, SBR             : No
Codec ID                         : 40
Duration                         : 4mn 18s
Bit rate mode                    : Variable
Bit rate                         : 150 Kbps
Maximum bit rate                 : 220 Kbps
Channel(s)                       : 2 channels
Channel positions                : L R
Sampling rate                    : 44.1 KHz
Resolution                       : 16 bits
Stream size                      : 4.63 MiB (6%)
Title                            : IsoMedia File Produced by Google, 5-11-2011
Реклама:
Категория:Клипове
Рейтинг: N/A
Големина:82.04 MB
Покажи/Скрий файловете:
6 файлове
Добавен на:05.10.2011
Изтеглено:440 път(и)
пиър(и): сийд(ове): 4, лийчър(и): 1 = 5пиър(и)


Няма Коментари...


Назад
От къде научихте за нас?
От Google (20)  (40%)
От сайта на HotDance (6)  (12%)
От приятел (8)  (16%)
От друго място (16)  (32%)
Форум Инфо
Теми:0
Публикации:0
Теми/Публикации:0 %
Не са намерени Теми

Торенти - HotGet.Net (http://torenti.hotget.net) by ComSys2000